<?xml version="1.0" standalone="no"?>
<!DOCTYPE svg PUBLIC "-//W3C//DTD SVG 1.1//EN" "http://www.w3.org/Graphics/SVG/1.1/DTD/svg11.dtd">
<svg xmlns="http://www.w3.org/2000/svg">
<metadata>Copyright (C) 2019 by original authors @ fontello.com</metadata>
<defs>
<font id="fontello" horiz-adv-x="1000" >
<font-face font-family="fontello" font-weight="400" font-stretch="normal" units-per-em="1000" ascent="850" descent="-150" />
<missing-glyph horiz-adv-x="1000" />
<glyph glyph-name="arrow-up" unicode="&#xe800;" d="M563 850l-563-1000h1125l-562 1000z" horiz-adv-x="1125" />

<glyph glyph-name="arrow-left" unicode="&#xe801;" d="M889 850v-1000l-889 500 889 500z" horiz-adv-x="889" />

<glyph glyph-name="arrow-right" unicode="&#xe802;" d="M0 850v-1000l889 500-889 500z" horiz-adv-x="889" />

<glyph glyph-name="twitter" unicode="&#xe803;" d="M1212 714c0 7-7 22-23 22-7 0-53-15-60-22 15 15 53 75 53 98 0 8-8 23-23 23 0 0-7 0-7 0-46-30-91-53-137-61-45 46-113 76-182 76-144 0-265-121-265-265 0-8 0-23 0-30-136 15-272 75-379 166-22 23-45 46-68 76-7 8-15 8-22 8-8 0-16-8-16-8-22-38-37-91-37-136 0-61 22-122 60-167-7 8-30 23-38 23-15 0-22-8-22-23 0-91 53-174 128-220-7 0-7 0-15 0-7 0-23-7-23-22 0 0 0-8 0-8 31-91 99-152 190-174-76-46-159-68-243-68-22 0-37 0-60 0-15 0-23-8-23-23 0-8 8-15 8-15 15-16 38-23 53-31 98-53 212-75 325-75 281 0 523 151 637 409 45 91 68 197 68 295v15c45 31 83 76 114 122 7 7 7 15 7 15l0 0z" horiz-adv-x="1212" />

<glyph glyph-name="pencil" unicode="&#xe804;" d="M520 230c-5-12-20-19-32-14l-61 26c-12 5-18 19-13 31l11 24 105-45-10-22z m104 502l65 41 16-75-81 34z m90 69c-1 5-4 9-9 11-4 1-9 1-13-2l-107-68c-3-2-4-4-6-7l-43-99 28-12 37 86 105-45-165-384-106 45 29 69-27 12-51-119c-12-28 2-60 29-72l61-25c28-12 60 2 72 29 10 27 180 424 191 450 2 3 2 7 2 9l-27 122z m-526 5c-42 0-78-34-78-78 0-42 34-78 78-78s77 36 77 78c0 43-35 78-77 78z m0-193c-64 0-115 52-115 115 0 64 51 115 115 115s115-51 115-115c-1-63-53-115-115-115z m69-108c-3 0-7-2-7-5l0-597c-5-5-12-9-20-9-8 0-14 4-18 8l0 337c0 2 0 3-2 4-1 2-2 2-4 2h-38c-3 0-5-3-5-7l0-258v-62-17c-6-6-11-8-19-8-8 0-16 4-20 9l0 528c0 1 0 2-1 4-1 1-3 1-4 1h-40c-2 0-6-3-6-5l0-173h-19c-2 0-4 1-4 4l0 202c0 21 14 40 35 46 33 11 67 17 103 17h308c7 0 12-5 12-12 0-6-5-11-12-11h-239z m300 12c0 35-28 61-62 61h-308c-41 0-81-7-119-20-40-12-68-50-68-92l0-203c0-30 24-54 54-54h20l0-308c0-2 3-10 4-12 8-17 36-39 65-39 17 0 32 7 44 16 11-9 26-16 43-16 29 0 52 10 66 36 3 7 3 11 3 13l0 555h196c34 1 62 29 62 63z" horiz-adv-x="749" />

<glyph glyph-name="youtube" unicode="&#xe805;" d="M529 166l0 399 360-200-360-199z m791 468c0 0-13 98-53 142-51 56-107 56-133 60-187 14-467 14-467 14l-1 0c0 0-280 0-466-14-26-4-83-4-134-60-40-44-53-142-53-142 0 0-13-115-13-230l0-108c0-115 13-230 13-230 0 0 13-98 53-141 51-57 118-55 147-61 107-11 454-14 454-14 0 0 280 0 467 15 26 3 82 3 133 60 40 43 53 141 53 141 0 0 13 115 13 230l0 108c0 115-13 230-13 230z" horiz-adv-x="1333" />

<glyph glyph-name="gallery" unicode="&#xe806;" d="M583 850h278v-278h-278v278z m0-361h278v-278h-278v278z m0-361h278v-278h-278v278z m361 722h278v-278h-278v278z m0-361h278v-278h-278v278z m0-361h278v-278h-278v278z m362 722h277v-278h-277v278z m0-361h277v-278h-277v278z m0-361h277v-278h-277v278z m-987 30v359l-319-181 319-178z" horiz-adv-x="1583" />

<glyph glyph-name="cancel" unicode="&#xe807;" d="M994 688l-169 162-331-331-332 331-162-162 331-331-331-332 162-169 332 332 331-332 169 169-332 332 332 331z" horiz-adv-x="1000" />

<glyph glyph-name="download" unicode="&#xe808;" d="M794 850h-565c-130 0-229-99-229-229v-542c0-130 99-229 229-229h557c130 0 229 99 229 229v542c8 130-99 229-221 229z m-282-718l-252 390h511l-259-390z" horiz-adv-x="1015" />

<glyph glyph-name="communities" unicode="&#xe809;" d="M733 563c0-36-29-65-64-65-36 0-65 29-65 65 0 36 29 65 65 65 35 0 64-29 64-65m-64 134c-74 0-134-60-134-134 0-74 60-134 134-134 73 0 133 60 133 134 0 74-60 134-133 134m-28-633c6-11 18-18 32-18 13 1 25 7 31 19l87 144c298-18 453-96 453-136 0-16-32-55-154-90-114-33-266-51-429-51-378 0-583 93-583 141 0 15 32 54 154 89 86 25 198 42 318 48l91-146z m31 92l-36 57-38 62-110 177c-21 33-32 72-32 111 0 117 95 213 213 213 117 0 212-96 212-213 0-38-11-76-30-108l-179-299z m163 127l80 133c26 44 40 95 40 147 0 158-128 287-286 287-159 0-287-129-287-287 0-53 14-105 42-151l80-128c-262-19-504-89-504-211 0-160 395-218 661-218 266 0 661 58 661 218 0 126-248 190-487 210z" horiz-adv-x="1333" />

<glyph glyph-name="artist" unicode="&#xe80a;" d="M320 792c33 0 60-27 60-60 0-33-27-61-60-61-34 0-61 28-61 61 0 33 27 60 61 60m0-178c64 0 117 53 117 118 0 65-53 117-117 117-65 0-118-52-118-117 0-65 53-118 118-118m180-693c-5-7-13-11-22-12-18-2-34 11-36 28l-23 193-200 0c-22 0-47 12-62 30-7 10-16 25-12 45l59 279c6 29 31 48 59 48 4 0 8 0 12-1 15-3 23-9 29-14l112-93 108 83c8 5 16 3 20 0 7-4 12-11 12-18-1-9-4-13-29-29l-126-85-84 59-50-239 210 0 30-250c1-9-2-17-7-24z m29 332l-190 0 17 82 44-32 159 108c27 18 53 35 55 75 1 29-15 58-41 73-26 14-57 13-83-4l-73-56-75 63c-16 13-34 22-55 27-64 13-127-28-140-93l-59-279c-7-33 2-66 24-94 26-32 67-52 107-52l149 0 16-141c6-46 45-80 90-80 4 0 8 0 11 1 24 3 46 15 61 34 15 19 22 43 19 67l-36 301z m-234-208l-237 0 0 441c0 16-13 29-29 29-16 0-29-13-29-29l0-499 128 0 0-69-30 0c-16 0-29-13-29-29 0-16 13-29 29-29l114 0c16 0 30 13 30 29 0 16-14 29-30 29l-26 0 0 69 109 0c16 0 29 13 29 29 0 16-13 29-29 29m580 495c-9 14-27 17-40 9l-359-228c-14-9-18-27-9-40 6-9 15-13 25-13 5 0 11 1 16 4l139 88-1-443-28 0c-16 0-29-13-29-29 0-16 13-29 29-29l115 0c16 0 29 13 29 29 0 16-13 29-29 29l-28 0 0 480 162 103c13 9 17 27 8 40" horiz-adv-x="884" />

<glyph glyph-name="hands" unicode="&#xe80b;" d="M115 286l151-171c10-11 27-12 38-2 11 10 12 26 2 38l-112 128c-5 5-7 12-7 19 0 7 4 13 9 18 0 0 1 1 1 1 12 8 27 6 36-4l97-112c3-3 6-5 9-6 71-35 115-106 114-184l0-108-195 0-204 323 0 356c0 14 12 26 27 26 15 0 27-12 27-26l0-278c0-7 2-13 7-18m253-46l-94 108c-27 31-75 37-109 12-1-1-2-2-3-3l0 225c0 44-36 80-81 80-45 0-81-36-81-80l0-364c0-5 1-9 4-14l216-341c5-8 14-13 23-13l237 0c15 0 27 12 27 27l0 134c1 97-53 184-139 229m280-337l0 108c0 78 44 149 115 184 3 1 6 3 8 6l97 112c9 10 25 12 36 4 1 0 1-1 2-1 5-5 8-11 9-18 0-7-2-14-7-19l-113-128c-10-12-8-28 3-38 11-10 28-9 38 2l151 171c4 5 7 11 7 18l0 278c0 14 12 26 27 26 14 0 27-12 27-26l0-356-204-323-196 0z m373 759c-45 0-81-36-81-80l0-225c-1 1-2 2-4 3-33 25-81 19-109-12l-93-108c-87-45-140-132-140-229l0-134c0-15 12-27 27-27l238 0c9 0 18 5 23 12l215 342c3 5 4 9 4 14l0 364c0 44-36 80-80 80z m-690-222l0 0 0 0z m120 182l0-155-35 0 0 206 142 104 142-104 0-206-143 0 0 155-106 0z m-88 13l0-168-37 0-1-52 460 0 6 0 0 52-38 0 0 168 20-15 39 53-235 171c-11 8-27 8-38 0l-235-171 39-53 20 15z" horiz-adv-x="1101" />

<glyph glyph-name="email" unicode="&#xe80c;" d="M881 350l390 408 0-816-390 408z m-404-38l166-174c5-5 11-8 18-8 6 0 12 3 17 8l166 174 390-407-1146 0 389 407z m184-116l-573 599 1146 0-573-599z m-611 562l391-408-391-408 0 816z m1271-885c0 2 0 3 0 4l0 946c0 1 0 2 0 4-1 2-1 4-1 6-1 2-3 4-4 6-1 1-1 2-1 3-1 0-1 0-1 0-2 2-4 3-6 5-1 0-1 1-2 1-1 0-2 0-3 0-2 1-4 2-6 2 0 0-1 0-1 0l-1271 0c0 0 0 0 0 0-2 0-4-1-6-1-1-1-3-1-4-1 0 0-1-1-1-1-3-2-5-3-7-5 0 0 0 0 0 0-1-1-1-2-2-3-1-2-2-4-3-6-1-2-1-4-1-6 0-2-1-3-1-4l0-946c0-1 1-2 1-4 0-2 0-4 1-6 1-2 2-4 3-6 1-1 1-2 2-3 0 0 0 0 0 0 3-2 5-4 8-6 4-1 7-2 10-2l1271 0c4 0 7 1 10 2 3 2 6 4 8 6 0 0 0 0 1 0 0 1 0 2 1 3 1 2 3 4 4 6 0 2 0 4 1 6z" horiz-adv-x="1321" />

<glyph glyph-name="facebook" unicode="&#xe80d;" d="M363 669c25 0 62-6 87-13 6 0 13 0 19 7 6 6 12 12 12 18l19 125c0 13-6 25-19 25-43 13-93 19-143 19-157 0-232-75-232-225v-69h-81c-12 0-25-12-25-25v-131c0-12 13-25 25-25h81v-500c0-13 13-25 25-25h163c12 0 25 12 25 25v500h131c13 0 25 13 25 25l6 131c0 7 0 13-6 19-6 6-12 6-19 6h-137v57c0 43 0 56 44 56l0 0z" horiz-adv-x="500" />

<glyph glyph-name="pin" unicode="&#xe80e;" d="M344 850c-190 0-344-152-344-341l330-644 359 644c0 187-155 341-345 341z m0-377c-54 0-98 44-98 98s44 99 98 99 99-45 99-99-45-98-99-98z" horiz-adv-x="689" />

<glyph glyph-name="menu" unicode="&#xe80f;" d="M1171-1v-102c0-29-22-51-47-51h-1077c-25 0-47 22-47 51v102c0 29 22 51 47 51h1073c29 0 51-22 51-51z m0 400v-102c0-29-22-51-47-51h-1077c-25 0-47 22-47 51v102c0 29 22 51 47 51h1073c29 0 51-22 51-51z m0 400v-102c0-29-22-51-47-51h-1077c-25 4-47 26-47 55v98c0 29 22 51 47 51h1073c29 0 51-22 51-51z" horiz-adv-x="1171" />

<glyph glyph-name="chart" unicode="&#xe810;" d="M178 755c-40 0-74-32-74-74 0-40 32-73 74-73s73 32 73 73c-1 42-33 74-73 74z m0-181c-60 0-109 49-109 109 0 60 49 108 109 108 60 0 108-48 108-108-1-60-50-109-108-109z m652-336h63v22h-63v-22z m-115 481v65l120-65h-120z m-47 0h-120l120 65v-65z m343 0h-78l-239 130c-1 1-4 1-5 0l-240-130h-61c-3 0-7-3-7-5v-138c0-2 3-6 7-6h36c2 0 6 3 6 6v97h541v-435h-30v63c0 3-2 7-6 7h-146c-3 0-6-3-6-7v-63h-354v150c0 2-3 6-6 6h-35c-3 0-7-3-7-6v-192c0-2 3-5 7-5h265l-142-281c-1-1-1-3 0-4 0-1 2-2 3-4l32-16c3-1 7 0 8 3l115 226v-216c0-3 2-7 6-7h36c3 0 7 3 7 7v216l111-220 2-5c2-1 2-3 4-3 0 0 1 0 1 0 2 0 2 0 3 0l32 17c3 1 4 5 3 7l-145 279h282c3 0 5 3 5 5v519c2 2-1 5-5 5z m-768-248c-3 0-5-2-5-5l0-564c-5-5-12-8-19-8-8 0-14 3-18 7l0 319c0 1 0 3-1 4-2 1-4 1-5 1h-36c-3 0-5-2-5-6l0-244h0c0 0 0-59 0-59v-16c-5-5-10-8-18-8-7 0-15 4-18 9l0 499c0 1 0 3-2 4-1 1-2 1-3 1h-38c-2 0-5-2-5-6l0-164h-19c-2 0-3 1-3 4l0 191c0 20 12 38 32 44 31 10 64 16 98 16h291c6 0 11-5 11-11 0-6-5-11-11-11h-226z m283 12c0 32-26 58-58 58h-292c-38 0-76-6-112-18-39-13-64-49-64-89l0-191c0-29 23-52 51-52h19l0-291c0-1 3-9 4-11 7-17 34-37 61-37 16 0 30 7 41 15 12-8 25-15 42-15 27 0 48 9 62 34 3 6 3 10 3 13l0 524h185c32 1 58 27 58 60z m173-15c-1 1-3 1-4 1-1 0-2-1-4-3l-37-55-49 37c-1 1-2 1-4 1-1 0-2-1-3-3l-102-142c-1-3-1-6 2-8l28-21c2-1 3-1 4-1 0 0 0 0 1 0 2 0 3 1 4 2l76 108 50-36c2-2 3-2 4-2 1 0 3 2 4 3l37 55 49-34c1-1 3-1 4-1 1 0 2 1 4 2l70 108 40-26c1-2 3-2 5 0 1 1 2 2 2 5l10 142c0 3-1 4-2 5-2 1-4 1-5 0l-128-65c-1-1-2-2-2-5 0-2 1-4 2-5l40-26-46-71-50 35z" horiz-adv-x="1018" />

<glyph glyph-name="globe" unicode="&#xe811;" d="M831 224c-3 6-9 11-16 14l-153 51-47 112 93 115h126c12 0 25 9 28 22l12 54c45-70 72-153 72-242 0-83-23-160-63-226l-52 100z m-331-319c-20 0-38 2-58 5l55 123c2 3 3 8 3 11v138c0 10-5 17-11 22l-110 83c-5 3-11 6-17 6h-159l-55 37 37 74 46-46c8-8 20-11 31-6 10 4 17 13 17 26v77l49 97 103 50c8 5 14 13 15 20 2 10-1 19-7 25l-70 69 19 37c3 8 4 17 0 25 0 0 0 0 0 0 37 9 74 15 114 15 29 0 57-3 84-8l-1-67-25-49c-5-11-3-24 5-33l55-55c5-6 12-8 20-8 8 0 15 3 20 9l66 74 102-9-17-74h-117c-8 0-17-3-22-11l-110-138c-7-8-8-19-5-28l55-138c3-8 10-14 17-16l157-53 60-117c-81-102-206-167-346-167z m-112 16c-17 4-34 9-51 17l-5 43c0 4-3 9-4 14l-105 143v101h129l93-69v-120l-56-123c-1-2-1-3-1-6z m-333 429c0 22 2 43 5 63l23-97c2-6 6-12 12-17l71-47v-125c0-6 2-12 5-17l106-145 0-1c-132 78-222 221-222 386z m253 400l12-3-12-23c-5-11-3-23 4-32l56-56-77-38c-5-3-9-8-12-13l-56-110c-1-5-3-8-3-13v-17l-8 8c-4 5-12 8-20 8h-27c-11 0-20-6-25-16l-21-43-30 122c45 98 122 180 219 226z m327-51c2 3 4 8 4 13l1 61c45-15 86-37 123-64l-46 4c-9-1-17-4-23-11l-55-61-22 21 18 37z m-135 151c-275 0-500-225-500-500s225-500 500-500 500 225 500 500-225 500-500 500z" horiz-adv-x="1000" />

<glyph glyph-name="mail" unicode="&#xe812;" d="M975 350l434 409v-816l-434 407z m-446-38l184-174c6-5 12-7 19-7 7 0 14 3 19 7l184 174 430-407h-1268l432 407z m203-116l-635 599h1270l-635-599z m-677 563l432-409-432-409v818z m1407-886c0 2 2 3 2 4v946c0 1 0 2-2 4 0 1 0 4-1 6-2 3-3 4-4 5 0 2-2 2-2 3 0 0 0 0 0 0-1 2-4 3-7 5 0 0-2 1-2 1-1 0-2 0-2 0-3 0-5 2-8 2 0 0 0 0 0 0h-1408c0 0 0 0 0 0-3 1-5 0-8 0-1 0-3 0-4-2 0 0-1 0-1-1-2 0-5-2-8-5 0 0 0 0 0 0 0 0 0-1-1-3-2-1-3-2-5-5 0-2 0-5 0-6-1-2-1-3-1-4v-946c0-1 0-2 1-4 0-1 0-4 2-6 1-3 3-4 4-5 0-2 2-2 2-3 0 0 0 0 0 0 3-3 6-5 8-6 3-3 8-3 11-3h1408c5 0 8 0 10 1 3 2 8 3 9 6 0 0 0 0 0 0 2 2 2 2 2 3 1 2 2 4 4 6 1 3 1 6 1 7z" horiz-adv-x="1465" />

<glyph glyph-name="pinwheel" unicode="&#xe813;" d="M996 359c0 0 0 1 0 1 0 2-2 3-2 5 0 0 0 1-1 1-2 2-3 5-5 6l-213 213 213 215c9 9 12 21 6 32-4 11-15 18-26 18h-468c0 0 0 0 0 0h-1c-2 0-3 0-3 0 0 0 0 0-2 0-9-1-16-7-20-15l-209-208-215 214c-9 9-21 12-32 6s-18-15-18-26v-469c0-3 0-5 2-8 0 0 0-1 0-1 0-2 1-3 1-5 0 0 0-1 1-1 2-2 3-5 5-6l0 0c0 0 0 0 0 0l213-213-213-215c-9-9-12-21-6-32 4-11 15-18 26-18h470c3 0 4 0 7 1 0 0 1 0 1 0 2 0 3 2 5 2 0 0 1 0 1 1 2 2 5 3 6 5l213 213 214-213c6-6 13-9 20-9 5 0 8 0 12 3 10 4 18 15 18 26v470c1 2 1 4 0 7z m-136 59c-64 11-151 17-254-5 0 2-2 2-2 3l130 130 126-128z m-342 373h379l-334-334c-19 12-41 18-64 18-2 0-3 0-5 0-32 160 6 277 24 316z m-86-79c-11-63-17-150 5-253-2 0-2-2-3-2l-128 128 126 127z m-373 38l334-334c-12-19-18-41-18-64 0-2 0-3 0-5-160-32-276 6-316 24v379z m78-465c32-6 72-10 116-10 41 0 88 4 138 15 0-2 2-2 2-3l-128-128-128 126z m342-373h-379l334 334c19-12 41-18 65-18 1 0 3 0 4 0 32-160-6-277-24-316z m21 363c-41 0-76 34-76 77s33 76 76 76 77-34 77-76-36-77-77-77z m65-285c12 64 17 151-5 254 2 0 2 2 3 2l130-130-128-126z m373-37l-334 334c12 19 18 41 18 65 0 1 0 2 0 4 160 31 277-7 316-24v-379z" horiz-adv-x="1000" />

<glyph glyph-name="building" unicode="&#xe814;" d="M141 379h87v-86h-87v86z m0 141h87v-86h-87v86z m653-519h-6v99 23 484c0 15-12 28-28 28h-140v71c0 15-12 28-28 28h-6v39c0 13-8 22-19 27l-151 50c-2 0-8 0-14-2l-151-50c-11-3-19-14-19-26v-40h-6c-16 0-28-12-28-28v-72h-137c-15 0-28-13-28-28v-131-17-455h-5c-15 0-28-13-28-29v-94c0-15 13-28 28-28h766c16 0 29 13 29 28v94c-2 16-13 29-29 29z m-505 752l122 41 123-41v-19h-245v19z m-35-74h7 299 7v-44h-313v44z m-166-223v17 105h645v-455-23-99h-177v122c0 80-65 145-145 145s-144-65-144-145v-122h-179v455z m413-333v-122h-179v122c0 49 39 90 89 90 49 0 90-41 90-90z m268-217h-3-711v40h6 234 234 234 6v-40z m-172 614h86v-86h-86v86z m-157 0h86v-86h-86v86z m-142 0h87v-86h-87v86z m299-141h86v-86h-86v86z m-157 0h86v-86h-86v86z m-142 0h87v-86h-87v86z m-157-125h87v-87h-87v87z m456 0h86v-87h-86v87z" horiz-adv-x="823" />

<glyph glyph-name="search" unicode="&#xe815;" d="M704 424c0-153-125-278-278-278-153 0-278 125-278 278 0 153 125 278 278 278 153 0 278-125 278-278l0 0z m296-497c0 20-8 40-22 54l-206 206c48 71 74 155 74 240 0 234-189 423-423 423-234 0-423-189-423-423 0-234 189-423 423-423 85 0 170 26 240 74l206-205c14-15 34-23 54-23 42 0 77 35 77 77l0 0z" horiz-adv-x="1000" />

<glyph glyph-name="chevron-down" unicode="&#xe816;" d="M733-150l-733 767 233 233 517-533 583 533 217-233-817-767z" horiz-adv-x="1550" />

<glyph glyph-name="instagram" unicode="&#xe817;" d="M903 43c0-53-43-96-96-96l-614 0c-53 0-96 43-96 96l0 410 150 0c-13-32-20-67-20-103 0-151 122-273 273-273 151 0 273 122 273 273 0 36-7 71-20 103l150 0 0-410z m-546 410c32 44 84 73 143 73 59 0 111-29 143-73 21-29 33-65 33-103 0-97-79-176-176-176-97 0-176 79-176 176 0 38 13 74 33 103z m505 282l22 0 0-22 0-148-169 0 0 169 147 1z m-55 115l-614 0c-106 0-193-87-193-193l0-204 0-410c0-106 87-193 193-193l614 0c106 0 193 87 193 193l0 410 0 204c0 106-87 193-193 193z" horiz-adv-x="1000" />

<glyph glyph-name="chevron-up" unicode="&#xe818;" d="M1333-150l-583 533-517-533-233 233 733 767 817-767-217-233z" horiz-adv-x="1550" />

<glyph glyph-name="arrow-down" unicode="&#xe819;" d="M0 850l563-1000 562 1000h-1125z" horiz-adv-x="1125" />

<glyph glyph-name="globe-grid" unicode="&#xe81a;" d="M640-64c33 39 70 93 97 164l121 0c-53-76-129-134-218-164z m-498 164l121 0c28-71 64-125 97-164-89 30-165 88-218 164z m218 664c-33-39-69-93-97-164l-121 0c53 76 129 134 218 164z m499-164l-122 0c-27 71-64 125-97 164 89-30 166-88 219-164z m-79-219c-2 58-10 110-22 157l137 0c23-48 37-101 41-157l-156 0z m0-62l156 0c-4-56-19-109-41-156l-137 0c12 46 20 98 22 156z m-249-156l0 156 187 0c-3-60-12-112-26-156l-161 0z m14-233c-5-4-10-8-14-11l0 181 139 0c-17-38-36-69-55-95-25-35-51-59-70-75z m-76 170l0-181c-30 22-94 78-139 181l139 0z m-187 219l187 0 0-156-162 0c-13 44-22 97-25 156z m-62 62l-156 0c4 56 19 109 41 157l138 0c-13-47-21-99-23-157z m249 157l0-157-186 0c2 60 11 112 25 157l161 0z m-14 232c5 4 10 8 14 11l0-181-139 0c17 38 36 69 55 95 25 35 51 59 70 75z m238-232c13-45 22-97 25-157l-187 0 0 157 162 0z m-162 62l0 181c30-22 94-78 139-181l-139 0 0 0z m-467-281l156 0c2-58 10-110 23-156l-138 0c-22 47-37 100-41 156z m436 531c-276 0-500-224-500-500 0-276 224-500 500-500 276 0 500 224 500 500 0 276-224 500-500 500z" horiz-adv-x="1000" />

<glyph glyph-name="translation-arrow" unicode="&#xe81b;" d="M709 92c-4-16-10-32-16-48-3-9-6-19-10-28-6-12-11-25-17-38-12-23-28-44-47-63-18-17-47-16-64 1-9 9-13 20-13 32 0 12 5 22 14 31 3 3 5 6 8 10 16 21 28 43 39 66 6 14 12 27 17 41 15 39 25 80 32 122 8 49 9 99 4 148-6 47-18 92-35 136-15 38-35 73-59 105-23 30-49 57-79 80-31 24-65 44-101 60-37 15-75 26-114 32-37 6-75 8-112 9-21 1-42 1-62 0-21-2-42-4-63-6-8 0-17 4-22 10-5 5-9 13-8 21 0 8 3 16 9 21 6 7 14 8 22 9 28 2 56 5 84 6 30 1 60 0 90-2 58-3 117-12 172-31 56-20 109-48 155-85 45-35 84-78 115-127 31-48 53-102 68-158 16-57 22-116 21-175-1-30-4-60-8-90-5-30-12-60-20-89m-100-152c-2 2-4 3-6 5 2-2 4-3 6-5m0 0c-2 2-4 4-5 6 1-2 3-4 5-6m8 3c-2-2-4-4-6-4 2 1 4 3 6 4m329 114c0 2 1 4 1 5 1 9 0 19-5 27-11 19-38 28-57 16-45-29-90-59-135-87-21-14-42-27-63-40-22-13-44-26-67-36-4-1-7-2-11-3-1 1-1 2-2 3-3 4-6 9-8 14-5 14-8 29-10 44-3 35-3 70-4 106-2 37-5 75-9 113 1 9-2 18-6 26-3 3-5 7-8 10-9 10-22 15-35 15-14 1-28-4-38-14-8-8-16-22-15-35 2-25 5-50 6-75 3-43 5-87 9-130 3-24 5-49 13-72 10-30 25-61 54-79 15-10 33-15 52-15 16 0 30 6 45 12 12 6 24 12 35 19 39 23 76 47 114 71 41 27 83 54 124 81 9 6 17 13 20 24" horiz-adv-x="947" />

<glyph glyph-name="rss-squared" unicode="&#xf143;" d="M286 136q0 29-21 50t-51 21-50-21-21-50 21-51 50-21 51 21 21 51z m196-53q-8 130-99 222t-221 98q-8 1-14-5t-5-13v-71q0-7 5-12t12-6q86-6 147-68t67-147q1-7 6-12t12-5h72q7 0 13 6t5 13z m214 0q-3 86-31 166t-78 145-115 114-145 78-166 31q-7 1-13-5-5-5-5-13v-71q0-7 5-12t12-6q114-4 211-62t156-155 62-211q0-8 5-13t13-5h71q7 0 13 6 6 5 5 13z m161 535v-536q0-66-47-113t-114-48h-535q-67 0-114 48t-47 113v536q0 66 47 113t114 48h535q67 0 114-48t47-113z" horiz-adv-x="857.1" />
</font>
</defs>
</svg>
